#TITLE:Mei;
#SUBTITLE:~Dinamo re-edit~;
#ARTIST:Amuro Vs Killer;
#TITLETRANSLIT:;
#SUBTITLETRANSLIT:;
#ARTISTTRANSLIT:;
#CREDIT:;
#BANNER:Mei.png;
#BACKGROUND:Mei-bg.png;
#LYRICSPATH:;
#CDTITLE:dinamo.png;
#MUSIC:beatmania IIDX 12 HAPPY SKY - Mei.mp3;
#OFFSET:-0.370;
#SAMPLESTART:35.088;
#SAMPLELENGTH:12.000;
#SELECTABLE:YES;
#BPMS:0.000=200.000,230.000=220.000,238.000=240.000,246.000=260.000,254.000=280.000,262.000=300.000,266.000=320.000,283.000=340.000,286.000=360.000,288.000=370.000,294.000=380.000,301.000=389.999,306.000=399.999,318.000=200.001;
#STOPS:;
#BGCHANGES:;
// cache tags:
#FIRSTBEAT:6.000;
#LASTBEAT:450.500;
#SONGFILENAME:Songs/Chilean Keyboard Megapack 3/(Dinamo) Mei/Mei.sm;
#HASMUSIC:1;
#HASBANNER:1;
#MUSICLENGTH:130.066;
// end cache tags

//---------------dance-single - ----------------
#NOTES:
     dance-single:
     :
     Challenge:
     12:
     1.000,1.000,1.000,0.369,0.834,933.000,141.000,48.000,0.000,0.000:
0000
0000
0000
0000
,
0000
0000
0000
0000
1000
1000
0100
0100
,
0001
0100
2000
0000
0000
3000
0100
0000
,
1000
0000
0010
0010
0100
0100
0001
0001
,
1000
0100
0002
0000
0000
0000
0000
0000
,
0000
0003
0100
0001
0100
0001
0100
1000
,
0100
0001
0200
0000
0000
0000
0000
0000
,
0300
0000
0001
1000
0001
0001
1000
1000
,
0010
0001
0020
0000
0000
0000
0000
0030
,
0000
0000
0000
0000
0100
0001
0100
0001
0100
0000
0100
0000
0001
0000
1000
0001
,
0010
0001
1000
0000
0010
0100
0001
1000
0100
0000
0001
0000
0100
0000
0001
1000
,
0010
0100
0001
0000
1000
0100
0010
0100
1000
0000
0100
0000
0100
0000
0001
0010
,
0001
1000
0001
0000
0010
0001
1000
0100
0010
0001
0100
0010
1000
0000
1000
0001
,
0010
0100
1000
0000
0010
1000
0001
1000
0100
0010
0001
0010
0001
0000
0010
1000
,
0100
0010
0001
0000
0100
0010
1000
0001
0100
0001
1000
0010
1000
0000
0001
0100
,
0001
1000
0100
0000
0001
0010
0001
1000
0100
0010
0100
0010
0001
0000
1000
0010
,
1000
0001
0010
0000
1000
0100
0001
0100
2000
0000
0000
0000
0100
0000
0000
0000
,
0100
3000
0000
0000
1000
0000
0000
0000
0001
0000
1000
0000
0010
0000
0001
0010
,
0100
0000
0001
0000
1000
0000
1000
0000
0010
0000
0100
0000
1000
0000
0100
1000
,
0010
0000
1001
0000
0010
0000
1001
0000
0100
0000
0100
0000
0100
0000
0001
0100
,
1000
0000
1100
0000
0100
0000
0110
0000
0001
0000
1000
0000
0001
0000
0100
0010
,
1000
0000
0100
0000
0011
0000
1000
0000
0011
0000
0001
0000
1000
0000
0001
0100
,
0010
0000
0110
0000
0001
0000
1100
0000
0010
0000
0101
0000
0010
0000
0100
0010
,
0001
0000
0010
0000
0101
0000
1000
0000
0110
0000
1000
0000
0011
0000
1000
0001
,
0010
0000
1001
0000
0100
0000
0110
0000
1000
0000
0011
0000
0001
0000
1000
0100
,
0001
0000
0100
0000
1001
0000
0100
0000
0011
0000
1000
0000
0001
0000
0010
0001
,
1000
0000
0001
0000
0110
0000
1000
0000
0101
0000
0010
0000
1100
0000
0001
1000
,
0010
0000
0011
0000
1000
0000
0110
0000
0001
0000
0110
0000
0001
0000
1000
0100
,
0010
0000
0100
0000
0001
0000
1000
0000
0010
0000
1000
0000
0001
0000
0100
0010
,
1001
0000
0100
0000
0010
0000
1000
0000
0001
0000
0100
0000
0001
0000
0010
0100
,
0011
0000
0100
0000
0001
0000
1000
0000
0010
0000
1000
0000
0100
0000
0001
1000
,
0110
0000
0001
0000
1000
0000
0100
0000
0001
0000
0100
0000
1000
0000
0100
1000
,
0011
1000
0001
0100
0210
0000
0000
0000
,
1300
0001
1000
0100
0010
0100
1000
0001
0100
0000
0010
1000
0010
0000
0110
0000
,
0001
1000
0010
0000
0101
0000
0001
0010
0100
0000
1100
0000
0001
0100
0010
0000
,
0100
0001
1000
0100
0010
0100
1000
0001
1000
0100
1000
0010
0100
0001
0010
0001
,
1000
0100
0010
0001
0010
0001
1000
0100
0010
0100
1000
0001
0010
0100
0010
0001
,
1000
0001
0010
0001
0010
0100
1000
0100
1000
0000
1001
0000
0000
0000
1000
0001
,
1000
0000
1001
0000
0000
0000
0100
1000
0100
0000
0011
0000
0000
0000
0001
0100
,
0001
0000
1100
0000
0000
0000
0100
0001
0100
0000
0000
0000
0001
0000
1000
0000
,
0100
0000
0001
0000
0100
0000
1000
0000
0100
0000
0010
0000
0100
0010
0001
1000
,
0001
0010
0001
0100
0001
1000
0100
0010
0100
0000
0000
0000
0011
0000
0000
0000
,
1100
0000
0110
0000
0011
0011
1100
1100
,
0000
0101
1010
0010
0101
0010
1100
0010
,
0110
0000
0001
0000
1010
0000
0100
0000
0100
0000
0000
0100
0010
0000
0010
1000
,
0100
1000
0010
0100
0010
0100
0001
1000
0002
0000
0000
0000
0000
0003
0100
0010
,
0100
0001
0010
0100
0010
0001
0100
0001
0010
0100
1000
0100
0010
0100
0010
0001
,
0010
0001
0100
0010
0100
0001
1000
0100
0010
0100
1000
0001
1000
0010
1000
0001
,
0100
0010
1000
0100
0010
0001
0010
0100
1000
0001
1000
0100
1000
0010
1000
0001
,
0010
0100
1000
0100
0010
0100
1000
0001
1001
0000
1010
0000
0010
0000
1000
0000
,
0110
0110
0000
0011
0001
0100
0011
1100
,
0000
1100
0010
1000
0101
1010
0000
1001
,
0010
0100
0110
0101
0000
1100
0100
0010
,
0101
1100
0000
0110
0001
1000
1001
1010
,
0000
0101
0010
0100
1010
0110
0000
0011
,
0100
1000
1010
0110
0000
0110
0001
0100
,
0101
0110
0000
1010
0010
1000
1001
0110
,
0000
0000
0100
0000
0010
1000
0010
0001
0010
0000
0000
0000
1001
0000
1001
0000
,
0000
0110
0110
0000
0011
0011
0000
1100
,
1100
0000
0000
0000
0010
1000
0100
0010
0100
0000
0000
0000
0101
0000
0011
0000
,
0000
1010
1100
0000
0101
1010
0000
1100
,
1010
0000
0000
0000
0001
1000
0100
0010
0001
0000
0000
0000
0001
0000
0010
0000
,
0000
0010
0100
0000
0001
0100
0000
1000
,
0010
0000
1001
0110
1001
0000
0100
0010
,
0000
0100
0010
0000
0001
0010
0000
0010
,
0001
0000
1000
0010
0100
0010
0001
0010
,
1000
0100
0010
0001
0100
1000
0100
0001
,
0010
0100
1000
0100
1000
0010
1000
0001
,
1000
0100
0010
0100
1000
0010
1000
0100
,
0010
0100
1000
0001
0100
0010
1000
0000
,
0000
0000
0011
1000
0001
1000
0110
0000
,
0000
0000
0011
1000
0100
0001
1100
0000
,
1001
0000
0110
0000
,
0101
0000
1100
0001
,
0110
0010
1010
0100
,
0101
0000
0100
0000
1000
0100
0010
0001
,
0010
0100
1000
0100
0010
0001
0010
0100
,
1000
0100
0010
0001
0220
0000
0000
0000
,
0000
0000
0000
0000
,
0000
0000
0000
0000
0330
0000
0000
0000
0001
0000
0001
0100
0001
0100
0001
1000
,
0010
0100
0001
0010
0001
1000
0100
0010
0001
0000
0001
0100
0010
1000
0100
1000
,
0100
0000
0100
0000
0001
0000
1000
0000
0020
0000
0000
0000
0030
0000
0010
0100
,
0010
1000
0001
0010
0100
0010
0001
0100
,
1000
0100
0001
0100
0010
0100
1000
0100
,
2000
0000
0000
0000
0100
0000
0000
0000
3100
0000
0100
0010
0100
0000
0100
0010
,
0100
0000
0010
0000
1000
0000
0000
0000
0100
0000
0000
0000
0001
0100
0010
1000
,
0100
0010
0100
1000
0001
1000
0010
1000
0100
0010
0001
0010
0001
1000
0100
1000
,
0010
0100
0001
1000
0100
0010
0001
1000
0200
0000
0000
0000
0300
0000
0001
1000
,
0100
0000
0010
0001
1000
0000
0202
0000
0303
0000
0202
0000
0303
0000
1000
0100
,
1000
0000
0100
0001
0010
0000
0220
0000
0330
0000
0220
0000
0330
0000
0001
1000
,
0100
0000
0010
1000
0001
0000
2020
0000
3030
0000
2020
0000
3030
0000
0001
1000
,
0100
0000
0110
0000
1001
0000
0011
0000
2200
0000
0000
3300
0010
0000
0001
0000
,
1000
0100
0001
0100
1000
0100
0010
0100
,
0001
0000
0100
0000
2000
0000
0000
3000
0020
0000
0000
0030
1000
0100
0001
0100
,
1000
0100
1000
0001
0010
0001
1000
0001
2000
0000
0000
0000
0000
3000
0100
0010
,
2000
0000
0000
0000
0000
0000
0000
3000
0001
1000
0100
0010
0001
0010
0100
0010
,
0001
0100
0001
0010
0100
0010
0001
1000
0100
0010
0001
1000
0001
0100
0010
1000
,
0001
0010
0100
0010
0001
1000
0100
0010
0100
0000
0200
0000
0000
0300
0001
1000
,
0001
0000
0220
0000
0000
0330
1000
0100
0010
0100
1000
0001
0200
0000
0000
0300
,
0001
0000
0000
0000
0001
0010
0001
1000
0020
0000
0000
0000
0000
0000
0000
0030
,
0010
1000
0001
0100
0001
0000
0220
0000
0000
0000
0000
0330
0001
0000
0000
0000
,
1000
0100
0010
0100
1000
0100
0010
0100
0020
0000
0000
0030
0001
0100
0010
1000
,
0001
0010
0100
1000
0100
1000
0010
0100
0001
0010
0100
1000
0001
0010
0100
0010
,
0001
1000
0001
0010
0100
1000
0100
0010
1001
0000
0100
0000
0010
0000
1001
0000
,
0100
0010
0011
0100
1000
1001
0100
0010
,
1100
0110
1010
0011
1100
0100
0001
1001
,
0100
0010
1010
0100
0001
0101
1000
0100
,
1010
0110
1001
0110
0001
1000
0110
0001
,
0010
1010
1000
0010
0001
0020
0000
0000
,
0000
0000
0030
2000
0000
0000
0000
0000
0000
0000
0000
0000
3020
0000
0000
0000
,
0000
0032
0000
0000
0003
0020
0000
2030
,
0000
0000
0200
3000
0000
0000
0000
0000
0320
0000
0000
0000
0000
0000
0030
2200
,
0000
0000
0000
0000
0000
3300
0000
0000
;
